  0
SECTION
  2
HEADER
  9
$ACADVER
  1
AC1015
  9
$ACADMAINTVER
 70
    20
  9
$DWGCODEPAGE
  3
ANSI_1252
  9
$INSBASE
 10
0.0
 20
0.0
 30
0.0
  9
$EXTMIN
 10
0.5244559394679289
 20
0.9409119210723051
 30
0.0
  9
$EXTMAX
 10
10.14199727364233
 20
12.12486545154077
 30
0.0
  9
$LIMMIN
 10
0.0
 20
0.0
  9
$LIMMAX
 10
12.0
 20
9.0
  9
$ORTHOMODE
 70
     0
  9
$REGENMODE
 70
     1
  9
$FILLMODE
 70
     1
  9
$QTEXTMODE
 70
     0
  9
$MIRRTEXT
 70
     1
  9
$LTSCALE
 40
1.0
  9
$ATTMODE
 70
     1
  9
$TEXTSIZE
 40
0.2
  9
$TRACEWID
 40
0.05
  9
$TEXTSTYLE
  7
Standard
  9
$CLAYER
  8
0
  9
$CELTYPE
  6
ByLayer
  9
$CECOLOR
 62
   256
  9
$CELTSCALE
 40
1.0
  9
$DISPSILH
 70
     0
  9
$DIMSCALE
 40
1.0
  9
$DIMASZ
 40
0.18
  9
$DIMEXO
 40
0.0625
  9
$DIMDLI
 40
0.38
  9
$DIMRND
 40
0.0
  9
$DIMDLE
 40
0.0
  9
$DIMEXE
 40
0.18
  9
$DIMTP
 40
0.0
  9
$DIMTM
 40
0.0
  9
$DIMTXT
 40
0.18
  9
$DIMCEN
 40
0.09
  9
$DIMTSZ
 40
0.0
  9
$DIMTOL
 70
     0
  9
$DIMLIM
 70
     0
  9
$DIMTIH
 70
     1
  9
$DIMTOH
 70
     1
  9
$DIMSE1
 70
     0
  9
$DIMSE2
 70
     0
  9
$DIMTAD
 70
     0
  9
$DIMZIN
 70
     0
  9
$DIMBLK
  1

  9
$DIMASO
 70
     1
  9
$DIMSHO
 70
     1
  9
$DIMPOST
  1

  9
$DIMAPOST
  1

  9
$DIMALT
 70
     0
  9
$DIMALTD
 70
     2
  9
$DIMALTF
 40
25.4
  9
$DIMLFAC
 40
1.0
  9
$DIMTOFL
 70
     0
  9
$DIMTVP
 40
0.0
  9
$DIMTIX
 70
     0
  9
$DIMSOXD
 70
     0
  9
$DIMSAH
 70
     0
  9
$DIMBLK1
  1

  9
$DIMBLK2
  1

  9
$DIMSTYLE
  2
Standard
  9
$DIMCLRD
 70
     0
  9
$DIMCLRE
 70
     0
  9
$DIMCLRT
 70
     0
  9
$DIMTFAC
 40
1.0
  9
$DIMGAP
 40
0.09
  9
$DIMJUST
 70
     0
  9
$DIMSD1
 70
     0
  9
$DIMSD2
 70
     0
  9
$DIMTOLJ
 70
     1
  9
$DIMTZIN
 70
     0
  9
$DIMALTZ
 70
     0
  9
$DIMALTTZ
 70
     0
  9
$DIMUPT
 70
     0
  9
$DIMDEC
 70
     2
  9
$DIMTDEC
 70
     2
  9
$DIMALTU
 70
     2
  9
$DIMALTTD
 70
     2
  9
$DIMTXSTY
  7
Standard
  9
$DIMAUNIT
 70
     0
  9
$DIMADEC
 70
     0
  9
$DIMALTRND
 40
0.0
  9
$DIMAZIN
 70
     0
  9
$DIMDSEP
 70
    46
  9
$DIMATFIT
 70
     3
  9
$DIMFRAC
 70
     0
  9
$DIMLDRBLK
  1

  9
$DIMLUNIT
 70
     2
  9
$DIMLWD
 70
    -2
  9
$DIMLWE
 70
    -2
  9
$DIMTMOVE
 70
     0
  9
$LUNITS
 70
     2
  9
$LUPREC
 70
     4
  9
$SKETCHINC
 40
0.1
  9
$FILLETRAD
 40
0.5
  9
$AUNITS
 70
     0
  9
$AUPREC
 70
     0
  9
$MENU
  1
.
  9
$ELEVATION
 40
0.0
  9
$PELEVATION
 40
0.0
  9
$THICKNESS
 40
0.0
  9
$LIMCHECK
 70
     0
  9
$CHAMFERA
 40
0.5
  9
$CHAMFERB
 40
0.5
  9
$CHAMFERC
 40
1.0
  9
$CHAMFERD
 40
0.0
  9
$SKPOLY
 70
     0
  9
$TDCREATE
 40
2452317.357845834
  9
$TDUCREATE
 40
2452317.566179166
  9
$TDUPDATE
 40
2454097.482982084
  9
$TDUUPDATE
 40
2454097.691315417
  9
$TDINDWG
 40
0.0063792477
  9
$TDUSRTIMER
 40
0.0063792477
  9
$USRTIMER
 70
     1
  9
$ANGBASE
 50
0.0
  9
$ANGDIR
 70
     0
  9
$PDMODE
 70
     0
  9
$PDSIZE
 40
0.0
  9
$PLINEWID
 40
0.0
  9
$SPLFRAME
 70
     0
  9
$SPLINETYPE
 70
     6
  9
$SPLINESEGS
 70
     8
  9
$HANDSEED
  5
28A
  9
$SURFTAB1
 70
     6
  9
$SURFTAB2
 70
     6
  9
$SURFTYPE
 70
     6
  9
$SURFU
 70
     6
  9
$SURFV
 70
     6
  9
$UCSBASE
  2

  9
$UCSNAME
  2

  9
$UCSORG
 10
0.0
 20
0.0
 30
0.0
  9
$UCSXDIR
 10
1.0
 20
0.0
 30
0.0
  9
$UCSYDIR
 10
0.0
 20
1.0
 30
0.0
  9
$UCSORTHOREF
  2

  9
$UCSORTHOVIEW
 70
     0
  9
$UCSORGTOP
 10
0.0
 20
0.0
 30
0.0
  9
$UCSORGBOTTOM
 10
0.0
 20
0.0
 30
0.0
  9
$UCSORGLEFT
 10
0.0
 20
0.0
 30
0.0
  9
$UCSORGRIGHT
 10
0.0
 20
0.0
 30
0.0
  9
$UCSORGFRONT
 10
0.0
 20
0.0
 30
0.0
  9
$UCSORGBACK
 10
0.0
 20
0.0
 30
0.0
  9
$PUCSBASE
  2

  9
$PUCSNAME
  2

  9
$PUCSORG
 10
0.0
 20
0.0
 30
0.0
  9
$PUCSXDIR
 10
1.0
 20
0.0
 30
0.0
  9
$PUCSYDIR
 10
0.0
 20
1.0
 30
0.0
  9
$PUCSORTHOREF
  2

  9
$PUCSORTHOVIEW
 70
     0
  9
$PUCSORGTOP
 10
0.0
 20
0.0
 30
0.0
  9
$PUCSORGBOTTOM
 10
0.0
 20
0.0
 30
0.0
  9
$PUCSORGLEFT
 10
0.0
 20
0.0
 30
0.0
  9
$PUCSORGRIGHT
 10
0.0
 20
0.0
 30
0.0
  9
$PUCSORGFRONT
 10
0.0
 20
0.0
 30
0.0
  9
$PUCSORGBACK
 10
0.0
 20
0.0
 30
0.0
  9
$USERI1
 70
     0
  9
$USERI2
 70
     0
  9
$USERI3
 70
     0
  9
$USERI4
 70
     0
  9
$USERI5
 70
     0
  9
$USERR1
 40
0.0
  9
$USERR2
 40
0.0
  9
$USERR3
 40
0.0
  9
$USERR4
 40
0.0
  9
$USERR5
 40
0.0
  9
$WORLDVIEW
 70
     1
  9
$SHADEDGE
 70
     3
  9
$SHADEDIF
 70
    70
  9
$TILEMODE
 70
     1
  9
$MAXACTVP
 70
    64
  9
$PINSBASE
 10
0.0
 20
0.0
 30
0.0
  9
$PLIMCHECK
 70
     0
  9
$PEXTMIN
 10
1.000000000000000E+20
 20
1.000000000000000E+20
 30
1.000000000000000E+20
  9
$PEXTMAX
 10
-1.000000000000000E+20
 20
-1.000000000000000E+20
 30
-1.000000000000000E+20
  9
$PLIMMIN
 10
0.0
 20
0.0
  9
$PLIMMAX
 10
12.0
 20
9.0
  9
$UNITMODE
 70
     0
  9
$VISRETAIN
 70
     1
  9
$PLINEGEN
 70
     0
  9
$PSLTSCALE
 70
     1
  9
$TREEDEPTH
 70
  3020
  9
$CMLSTYLE
  2
Standard
  9
$CMLJUST
 70
     0
  9
$CMLSCALE
 40
1.0
  9
$PROXYGRAPHICS
 70
     1
  9
$MEASUREMENT
 70
     0
  9
$CELWEIGHT
370
    -1
  9
$ENDCAPS
280
     0
  9
$JOINSTYLE
280
     0
  9
$LWDISPLAY
290
     0
  9
$INSUNITS
 70
     1
  9
$HYPERLINKBASE
  1

  9
$STYLESHEET
  1

  9
$XEDIT
290
     1
  9
$CEPSNTYPE
380
     0
  9
$PSTYLEMODE
290
     1
  9
$FINGERPRINTGUID
  2
{DC175E3D-AE85-11D5-9A93-0040C77E826B}
  9
$VERSIONGUID
  2
{4EE2CBEE-E10C-4C60-B2A8-F31B79B83899}
  9
$EXTNAMES
290
     1
  9
$PSVPSCALE
 40
0.0
  9
$OLESTARTUP
290
     0
  0
ENDSEC
  0
SECTION
  2
CLASSES
  0
CLASS
  1
ACDBDICTIONARYWDFLT
  2
AcDbDictionaryWithDefault
  3
ObjectDBX Classes
 90
        0
280
     0
281
     0
  0
CLASS
  1
ACDBPLACEHOLDER
  2
AcDbPlaceHolder
  3
ObjectDBX Classes
 90
        0
280
     0
281
     0
  0
CLASS
  1
LAYOUT
  2
AcDbLayout
  3
ObjectDBX Classes
 90
        0
280
     0
281
     0
  0
CLASS
  1
TABLESTYLE
  2
AcDbTableStyle
  3
ObjectDBX Classes
 90
     2047
280
     0
281
     0
  0
CLASS
  1
SORTENTSTABLE
  2
AcDbSortentsTable
  3
ObjectDBX Classes
 90
        0
280
     0
281
     0
  0
CLASS
  1
DICTIONARYVAR
  2
AcDbDictionaryVar
  3
ObjectDBX Classes
 90
        0
280
     0
281
     0
  0
ENDSEC
  0
SECTION
  2
TABLES
  0
TABLE
  2
VPORT
  5
8
330
0
100
AcDbSymbolTable
 70
     3
  0
VPORT
  5
282
330
8
100
AcDbSymbolTableRecord
100
AcDbViewportTableRecord
  2
*Active
 70
     0
 10
0.0
 20
0.0
 11
1.0
 21
1.0
 12
5.777478588657398
 22
5.325280269658366
 13
0.0
 23
0.0
 14
0.5
 24
0.5
 15
0.5
 25
0.5
 16
0.0
 26
0.0
 36
1.0
 17
0.0
 27
0.0
 37
0.0
 40
14.88226279789453
 41
1.466327827191867
 42
50.0
 43
0.0
 44
0.0
 50
0.0
 51
0.0
 71
     0
 72
   100
 73
     1
 74
     3
 75
     0
 76
     0
 77
     0
 78
     0
281
     0
 65
     1
110
0.0
120
0.0
130
0.0
111
1.0
121
0.0
131
0.0
112
0.0
122
1.0
132
0.0
 79
     0
146
0.0
  0
ENDTAB
  0
TABLE
  2
LTYPE
  5
5
330
0
100
AcDbSymbolTable
 70
     1
  0
LTYPE
  5
14
330
5
100
AcDbSymbolTableRecord
100
AcDbLinetypeTableRecord
  2
ByBlock
 70
     0
  3

 72
    65
 73
     0
 40
0.0
  0
LTYPE
  5
15
330
5
100
AcDbSymbolTableRecord
100
AcDbLinetypeTableRecord
  2
ByLayer
 70
     0
  3

 72
    65
 73
     0
 40
0.0
  0
LTYPE
  5
16
330
5
100
AcDbSymbolTableRecord
100
AcDbLinetypeTableRecord
  2
Continuous
 70
     0
  3
Solid line
 72
    65
 73
     0
 40
0.0
  0
ENDTAB
  0
TABLE
  2
LAYER
  5
2
102
{ACAD_XDICTIONARY
360
257
102
}
330
0
100
AcDbSymbolTable
 70
     4
  0
LAYER
  5
10
330
2
100
AcDbSymbolTableRecord
100
AcDbLayerTableRecord
  2
0
 70
     0
 62
     7
  6
Continuous
370
    -3
390
F
  0
LAYER
  5
34
330
2
100
AcDbSymbolTableRecord
100
AcDbLayerTableRecord
  2
L
 70
     0
 62
     7
  6
Continuous
370
    -3
390
F
  0
LAYER
  5
45
330
2
100
AcDbSymbolTableRecord
100
AcDbLayerTableRecord
  2
Defpoints
 70
     0
 62
     7
  6
Continuous
290
     0
370
    -3
390
F
  0
LAYER
  5
88
330
2
100
AcDbSymbolTableRecord
100
AcDbLayerTableRecord
  2
tx
 70
     0
 62
   150
  6
Continuous
370
    -3
390
F
  0
ENDTAB
  0
TABLE
  2
STYLE
  5
3
330
0
100
AcDbSymbolTable
 70
     3
  0
STYLE
  5
11
330
3
100
AcDbSymbolTableRecord
100
AcDbTextStyleTableRecord
  2
Standard
 70
     0
 40
0.0
 41
1.0
 50
0.0
 71
     0
 42
0.2
  3
txt
  4

  0
STYLE
  5
35
330
3
100
AcDbSymbolTableRecord
100
AcDbTextStyleTableRecord
  2
REG
 70
     0
 40
0.0
 41
1.0
 50
0.0
 71
     0
 42
0.09375
  3
E:\R13\com\fonts\ARCHITXT.SHX
  4

  0
STYLE
  5
36
330
3
100
AcDbSymbolTableRecord
100
AcDbTextStyleTableRecord
  2
DIMTXT
 70
     0
 40
0.0
 41
1.0
 50
0.0
 71
     0
 42
1.125
  3
archt.shx
  4

  0
ENDTAB
  0
TABLE
  2
VIEW
  5
6
330
0
100
AcDbSymbolTable
 70
     0
  0
ENDTAB
  0
TABLE
  2
UCS
  5
7
330
0
100
AcDbSymbolTable
 70
     0
  0
ENDTAB
  0
TABLE
  2
APPID
  5
9
330
0
100
AcDbSymbolTable
 70
     1
  0
APPID
  5
12
330
9
100
AcDbSymbolTableRecord
100
AcDbRegAppTableRecord
  2
ACAD
 70
     0
  0
ENDTAB
  0
TABLE
  2
DIMSTYLE
  5
A
330
0
100
AcDbSymbolTable
 70
     6
100
AcDbDimStyleTable
 71
     1
340
27
  0
DIMSTYLE
105
27
102
{ACAD_REACTORS
330
261
330
26F
102
}
330
A
100
AcDbSymbolTableRecord
100
AcDbDimStyleTableRecord
  2
Standard
 70
     0
271
     2
272
     2
340
11
  0
DIMSTYLE
105
37
330
A
100
AcDbSymbolTableRecord
100
AcDbDimStyleTableRecord
  2
1
 70
     0
 41
1.125
 42
0.5
 43
0.375
 44
1.19921875
 46
0.5
 73
     0
 74
     0
 77
     1
 78
     3
140
1.125
141
0.125
146
0.8
147
0.5625
172
     1
174
     1
176
   133
177
   133
178
   150
271
     3
272
     3
276
     1
279
     1
340
36
  0
DIMSTYLE
105
38
330
A
100
AcDbSymbolTableRecord
100
AcDbDimStyleTableRecord
  2
1$2
 70
     0
 41
1.5
 42
0.5
 43
0.375
 44
1.19921875
 46
0.5
 73
     0
 74
     0
 77
     1
 78
     3
140
0.75
141
0.125
146
0.8
147
0.5625
172
     1
174
     1
176
   133
177
   133
178
   150
271
     3
272
     3
276
     1
279
     1
340
36
342
30
  0
DIMSTYLE
105
39
330
A
100
AcDbSymbolTableRecord
100
AcDbDimStyleTableRecord
  2
1$4
 70
     0
 41
1.5
 42
0.5
 43
0.375
 44
1.19921875
 46
0.5
 73
     0
 74
     0
 77
     1
 78
     3
140
0.75
141
0.125
146
0.8
147
0.5625
172
     1
173
     1
174
     1
176
   133
177
   133
178
   150
271
     3
272
     3
276
     1
279
     1
340
36
344
30
  0
DIMSTYLE
105
3A
330
A
100
AcDbSymbolTableRecord
100
AcDbDimStyleTableRecord
  2
1$3
 70
     0
 41
1.5
 42
0.5
 43
0.375
 44
1.19921875
 46
0.5
 73
     0
 74
     0
 77
     1
 78
     3
140
0.75
141
0.125
146
0.8
147
0.5625
172
     1
174
     1
176
   133
177
   133
178
   150
271
     3
272
     3
276
     1
279
     1
340
36
342
30
  0
DIMSTYLE
105
3B
330
A
100
AcDbSymbolTableRecord
100
AcDbDimStyleTableRecord
  2
1$7
 70
     0
 41
1.0
 42
0.5
 43
0.375
 44
1.19921875
 46
0.5
 73
     0
 74
     0
 77
     1
 78
     3
140
0.75
141
0.125
146
0.8
147
0.5625
172
     1
174
     1
176
   133
177
   133
178
   150
271
     3
272
     3
276
     1
279
     1
340
36
341
2B
  0
ENDTAB
  0
TABLE
  2
BLOCK_RECORD
  5
1
330
0
100
AcDbSymbolTable
 70
     8
  0
BLOCK_RECORD
  5
1F
330
1
100
AcDbSymbolTableRecord
100
AcDbBlockTableRecord
  2
*Model_Space
340
22
  0
BLOCK_RECORD
  5
1B
330
1
100
AcDbSymbolTableRecord
100
AcDbBlockTableRecord
  2
*Paper_Space
340
1E
  0
BLOCK_RECORD
  5
23
330
1
100
AcDbSymbolTableRecord
100
AcDbBlockTableRecord
  2
*Paper_Space0
340
26
  0
BLOCK_RECORD
  5
2B
330
1
100
AcDbSymbolTableRecord
100
AcDbBlockTableRecord
  2
_Dot
340
0
  0
BLOCK_RECORD
  5
30
330
1
100
AcDbSymbolTableRecord
100
AcDbBlockTableRecord
  2
_DotSmall
340
0
  0
BLOCK_RECORD
  5
C8
330
1
100
AcDbSymbolTableRecord
100
AcDbBlockTableRecord
  2
*D3
340
0
  0
BLOCK_RECORD
  5
D6
330
1
100
AcDbSymbolTableRecord
100
AcDbBlockTableRecord
  2
*D4
340
0
  0
BLOCK_RECORD
  5
262
330
1
100
AcDbSymbolTableRecord
100
AcDbBlockTableRecord
  2
*D6
340
0
  0
BLOCK_RECORD
  5
270
330
1
100
AcDbSymbolTableRecord
100
AcDbBlockTableRecord
  2
*D7
340
0
  0
ENDTAB
  0
ENDSEC
  0
SECTION
  2
BLOCKS
  0
BLOCK
  5
20
330
1F
100
AcDbEntity
  8
0
100
AcDbBlockBegin
  2
*Model_Space
 70
     0
 10
0.0
 20
0.0
 30
0.0
  3
*Model_Space
  1

  0
ENDBLK
  5
21
330
1F
100
AcDbEntity
  8
0
100
AcDbBlockEnd
  0
BLOCK
  5
1C
330
1B
100
AcDbEntity
 67
     1
  8
0
100
AcDbBlockBegin
  2
*Paper_Space
 70
     0
 10
0.0
 20
0.0
 30
0.0
  3
*Paper_Space
  1

  0
ENDBLK
  5
1D
330
1B
100
AcDbEntity
 67
     1
  8
0
100
AcDbBlockEnd
  0
BLOCK
  5
24
330
23
100
AcDbEntity
  8
0
100
AcDbBlockBegin
  2
*Paper_Space0
 70
     0
 10
0.0
 20
0.0
 30
0.0
  3
*Paper_Space0
  1

  0
ENDBLK
  5
25
330
23
100
AcDbEntity
  8
0
100
AcDbBlockEnd
  0
BLOCK
  5
2E
330
2B
100
AcDbEntity
  8
0
100
AcDbBlockBegin
  2
_Dot
 70
     0
 10
0.0
 20
0.0
 30
0.0
  3
_Dot
  1

  0
LWPOLYLINE
  5
2C
330
2B
100
AcDbEntity
  8
L
 62
     0
100
AcDbPolyline
 90
        2
 70
     1
 43
0.5
 10
-0.25
 20
0.0
 42
1.0
 10
0.25
 20
0.0
 42
1.0
  0
LINE
  5
2D
330
2B
100
AcDbEntity
  8
L
 62
     0
370
    -2
100
AcDbLine
 10
-0.5
 20
0.0
 30
0.0
 11
-1.0
 21
0.0
 31
0.0
  0
ENDBLK
  5
2F
330
2B
100
AcDbEntity
  8
0
100
AcDbBlockEnd
  0
BLOCK
  5
32
330
30
100
AcDbEntity
  8
0
 48
0.116666
100
AcDbBlockBegin
  2
_DotSmall
 70
     0
 10
0.0
 20
0.0
 30
0.0
  3
_DotSmall
  1

  0
LWPOLYLINE
  5
31
330
30
100
AcDbEntity
  8
0
  6
ByBlock
 62
     0
100
AcDbPolyline
 90
        2
 70
     1
 43
0.5
 10
-0.0625
 20
0.0
 42
1.0
 10
0.0625
 20
0.0
 42
1.0
  0
ENDBLK
  5
33
330
30
100
AcDbEntity
  8
0
 48
0.116666
100
AcDbBlockEnd
  0
BLOCK
  5
D3
330
C8
100
AcDbEntity
  8
0
100
AcDbBlockBegin
  2
*D3
 70
     1
 10
0.0
 20
0.0
 30
0.0
  3
*D3
  1

  0
LINE
  5
C9
330
C8
100
AcDbEntity
  8
0
 62
     0
370
    -2
100
AcDbLine
 10
1.592364009044629
 20
9.723711485927488
 30
0.0
 11
1.59236400904463
 21
11.66220176765747
 31
0.0
  0
LINE
  5
CA
330
C8
100
AcDbEntity
  8
0
 62
     0
370
    -2
100
AcDbLine
 10
8.835364009045022
 20
10.11621148592764
 30
0.0
 11
8.835364009045022
 21
11.66220176765747
 31
0.0
  0
LINE
  5
CB
330
C8
100
AcDbEntity
  8
0
 62
     0
370
    -2
100
AcDbLine
 10
1.772364009044629
 20
11.48220176765747
 30
0.0
 11
4.853864009044825
 21
11.48220176765747
 31
0.0
  0
LINE
  5
CC
330
C8
100
AcDbEntity
  8
0
 62
     0
370
    -2
100
AcDbLine
 10
8.655364009045023
 20
11.48220176765747
 30
0.0
 11
5.573864009044826
 21
11.48220176765747
 31
0.0
  0
SOLID
  5
CD
330
C8
100
AcDbEntity
  8
0
 62
     0
100
AcDbTrace
 10
1.772364009044629
 20
11.51220176765747
 30
0.0
 11
1.772364009044629
 21
11.45220176765747
 31
0.0
 12
1.59236400904463
 22
11.48220176765747
 32
0.0
 13
1.59236400904463
 23
11.48220176765747
 33
0.0
  0
SOLID
  5
CE
330
C8
100
AcDbEntity
  8
0
 62
     0
100
AcDbTrace
 10
8.655364009045023
 20
11.51220176765747
 30
0.0
 11
8.655364009045023
 21
11.45220176765747
 31
0.0
 12
8.835364009045022
 22
11.48220176765747
 32
0.0
 13
8.835364009045022
 23
11.48220176765747
 33
0.0
  0
MTEXT
  5
CF
330
C8
100
AcDbEntity
  8
0
 62
     0
100
AcDbMText
 10
5.213864009044826
 20
11.48220176765747
 30
0.0
 40
0.18
 41
0.0
 71
     5
 72
     1
  1
\A1;7.24
 73
     1
 44
1.0
1001
ACAD
1000
MTEXTBEGIN
1070
    73
1070
     1
1070
    44
1040
1.0
1070
    74
1070
     0
1000
MTEXTEND
  0
POINT
  5
D0
330
C8
100
AcDbEntity
  8
Defpoints
 62
     0
100
AcDbPoint
 10
1.592364009044629
 20
9.661211485927488
 30
0.0
  0
POINT
  5
D1
330
C8
100
AcDbEntity
  8
Defpoints
 62
     0
100
AcDbPoint
 10
8.835364009045022
 20
10.05371148592764
 30
0.0
  0
POINT
  5
D2
330
C8
100
AcDbEntity
  8
Defpoints
 62
     0
100
AcDbPoint
 10
8.835364009045022
 20
11.48220176765747
 30
0.0
  0
ENDBLK
  5
D4
330
C8
100
AcDbEntity
  8
0
100
AcDbBlockEnd
  0
BLOCK
  5
E1
330
D6
100
AcDbEntity
  8
0
100
AcDbBlockBegin
  2
*D4
 70
     1
 10
0.0
 20
0.0
 30
0.0
  3
*D4
  1

  0
LINE
  5
D7
330
D6
100
AcDbEntity
  8
0
 62
     0
370
    -2
100
AcDbLine
 10
2.19286400904464
 20
10.7537114859278
 30
0.0
 11
0.5994559394679309
 21
10.7537114859278
 31
0.0
  0
LINE
  5
D8
330
D6
100
AcDbEntity
  8
0
 62
     0
370
    -2
100
AcDbLine
 10
1.842364009045994
 20
2.253711485927915
 30
0.0
 11
0.599455939467929
 21
2.253711485927916
 31
0.0
  0
LINE
  5
D9
330
D6
100
AcDbEntity
  8
0
 62
     0
370
    -2
100
AcDbLine
 10
0.7794559394679308
 20
10.5737114859278
 30
0.0
 11
0.7794559394679299
 21
6.683711485927858
 31
0.0
  0
LINE
  5
DA
330
D6
100
AcDbEntity
  8
0
 62
     0
370
    -2
100
AcDbLine
 10
0.779455939467929
 20
2.433711485927916
 30
0.0
 11
0.7794559394679299
 21
6.323711485927859
 31
0.0
  0
SOLID
  5
DB
330
D6
100
AcDbEntity
  8
0
 62
     0
100
AcDbTrace
 10
0.7494559394679308
 20
10.5737114859278
 30
0.0
 11
0.8094559394679308
 21
10.5737114859278
 31
0.0
 12
0.779455939467931
 22
10.7537114859278
 32
0.0
 13
0.779455939467931
 23
10.7537114859278
 33
0.0
  0
SOLID
  5
DC
330
D6
100
AcDbEntity
  8
0
 62
     0
100
AcDbTrace
 10
0.749455939467929
 20
2.433711485927916
 30
0.0
 11
0.809455939467929
 21
2.433711485927916
 31
0.0
 12
0.779455939467929
 22
2.253711485927916
 32
0.0
 13
0.779455939467929
 23
2.253711485927916
 33
0.0
  0
MTEXT
  5
DD
330
D6
100
AcDbEntity
  8
0
 62
     0
100
AcDbMText
 10
0.7794559394679289
 20
6.503711485927858
 30
0.0
 40
0.18
 41
0.0
 71
     5
 72
     1
  1
\A1;8.50
 73
     1
 44
1.0
1001
ACAD
1000
MTEXTBEGIN
1070
    73
1070
     1
1070
    44
1040
1.0
1070
    74
1070
     0
1000
MTEXTEND
  0
POINT
  5
DE
330
D6
100
AcDbEntity
  8
Defpoints
 62
     0
100
AcDbPoint
 10
2.25536400904464
 20
10.7537114859278
 30
0.0
  0
POINT
  5
DF
330
D6
100
AcDbEntity
  8
Defpoints
 62
     0
100
AcDbPoint
 10
1.904864009045994
 20
2.253711485927915
 30
0.0
  0
POINT
  5
E0
330
D6
100
AcDbEntity
  8
Defpoints
 62
     0
100
AcDbPoint
 10
0.779455939467929
 20
2.253711485927916
 30
0.0
  0
ENDBLK
  5
E2
330
D6
100
AcDbEntity
  8
0
100
AcDbBlockEnd
  0
BLOCK
  5
26D
330
262
100
AcDbEntity
  8
0
100
AcDbBlockBegin
  2
*D6
 70
     1
 10
0.0
 20
0.0
 30
0.0
  3
*D6
  1

  0
LINE
  5
263
330
262
100
AcDbEntity
  8
0
 62
     0
370
    -2
100
AcDbLine
 10
2.654229416305059
 20
11.24732483810987
 30
0.0
 11
0.7228922259639688
 21
11.24732483810987
 31
0.0
  0
LINE
  5
264
330
262
100
AcDbEntity
  8
0
 62
     0
370
    -2
100
AcDbLine
 10
2.151229461904098
 20
2.747324831979851
 30
0.0
 11
0.7228922259639669
 21
2.747324831979852
 31
0.0
  0
LINE
  5
265
330
262
100
AcDbEntity
  8
0
 62
     0
370
    -2
100
AcDbLine
 10
0.9028922259639685
 20
11.06732483810987
 30
0.0
 11
0.9028922259639676
 21
7.177324835044862
 31
0.0
  0
LINE
  5
266
330
262
100
AcDbEntity
  8
0
 62
     0
370
    -2
100
AcDbLine
 10
0.9028922259639667
 20
2.927324831979852
 30
0.0
 11
0.9028922259639676
 21
6.817324835044862
 31
0.0
  0
SOLID
  5
267
330
262
100
AcDbEntity
  8
0
 62
     0
100
AcDbTrace
 10
0.8728922259639684
 20
11.06732483810987
 30
0.0
 11
0.9328922259639686
 21
11.06732483810987
 31
0.0
 12
0.9028922259639685
 22
11.24732483810987
 32
0.0
 13
0.9028922259639685
 23
11.24732483810987
 33
0.0
  0
SOLID
  5
268
330
262
100
AcDbEntity
  8
0
 62
     0
100
AcDbTrace
 10
0.8728922259639666
 20
2.927324831979852
 30
0.0
 11
0.9328922259639668
 21
2.927324831979852
 31
0.0
 12
0.9028922259639667
 22
2.747324831979852
 32
0.0
 13
0.9028922259639667
 23
2.747324831979852
 33
0.0
  0
MTEXT
  5
269
330
262
100
AcDbEntity
  8
0
 62
     0
100
AcDbMText
 10
0.9028922259639665
 20
6.997324835044862
 30
0.0
 40
0.18
 41
0.0
 71
     5
 72
     1
  1
\A1;8.50
 73
     1
 44
1.0
1001
ACAD
1000
MTEXTBEGIN
1070
    73
1070
     1
1070
    44
1040
1.0
1070
    74
1070
     0
1000
MTEXTEND
  0
POINT
  5
26A
330
262
100
AcDbEntity
  8
Defpoints
 62
     0
100
AcDbPoint
 10
2.716729416305059
 20
11.24732483810987
 30
0.0
  0
POINT
  5
26B
330
262
100
AcDbEntity
  8
Defpoints
 62
     0
100
AcDbPoint
 10
2.213729461904098
 20
2.747324831979851
 30
0.0
  0
POINT
  5
26C
330
262
100
AcDbEntity
  8
Defpoints
 62
     0
100
AcDbPoint
 10
0.9028922259639667
 20
2.747324831979852
 30
0.0
  0
ENDBLK
  5
26E
330
262
100
AcDbEntity
  8
0
100
AcDbBlockEnd
  0
BLOCK
  5
27B
330
270
100
AcDbEntity
  8
0
100
AcDbBlockBegin
  2
*D7
 70
     1
 10
0.0
 20
0.0
 30
0.0
  3
*D7
  1

  0
LINE
  5
271
330
270
100
AcDbEntity
  8
0
 62
     0
370
    -2
100
AcDbLine
 10
1.998729461903955
 20
10.21732483197919
 30
0.0
 11
1.998729461903956
 21
12.12486545154077
 31
0.0
  0
LINE
  5
272
330
270
100
AcDbEntity
  8
0
 62
     0
370
    -2
100
AcDbLine
 10
9.309777983656749
 20
10.53182483198241
 30
0.0
 11
9.309777983656749
 21
12.12486545154077
 31
0.0
  0
LINE
  5
273
330
270
100
AcDbEntity
  8
0
 62
     0
370
    -2
100
AcDbLine
 10
2.178729461903956
 20
11.94486545154077
 30
0.0
 11
5.324253722780352
 21
11.94486545154077
 31
0.0
  0
LINE
  5
274
330
270
100
AcDbEntity
  8
0
 62
     0
370
    -2
100
AcDbLine
 10
9.129777983656749
 20
11.94486545154077
 30
0.0
 11
5.984253722780352
 21
11.94486545154077
 31
0.0
  0
SOLID
  5
275
330
270
100
AcDbEntity
  8
0
 62
     0
100
AcDbTrace
 10
2.178729461903956
 20
11.97486545154077
 30
0.0
 11
2.178729461903956
 21
11.91486545154077
 31
0.0
 12
1.998729461903955
 22
11.94486545154077
 32
0.0
 13
1.998729461903955
 23
11.94486545154077
 33
0.0
  0
SOLID
  5
276
330
270
100
AcDbEntity
  8
0
 62
     0
100
AcDbTrace
 10
9.129777983656749
 20
11.97486545154077
 30
0.0
 11
9.129777983656749
 21
11.91486545154077
 31
0.0
 12
9.309777983656749
 22
11.94486545154077
 32
0.0
 13
9.309777983656749
 23
11.94486545154077
 33
0.0
  0
MTEXT
  5
277
330
270
100
AcDbEntity
  8
0
 62
     0
100
AcDbMText
 10
5.654253722780352
 20
11.94486545154077
 30
0.0
 40
0.18
 41
0.0
 71
     5
 72
     1
  1
\A1;7.31
 73
     1
 44
1.0
1001
ACAD
1000
MTEXTBEGIN
1070
    73
1070
     1
1070
    44
1040
1.0
1070
    74
1070
     0
1000
MTEXTEND
  0
POINT
  5
278
330
270
100
AcDbEntity
  8
Defpoints
 62
     0
100
AcDbPoint
 10
1.998729461903955
 20
10.15482483197919
 30
0.0
  0
POINT
  5
279
330
270
100
AcDbEntity
  8
Defpoints
 62
     0
100
AcDbPoint
 10
9.309777983656749
 20
10.46932483198241
 30
0.0
  0
POINT
  5
27A
330
270
100
AcDbEntity
  8
Defpoints
 62
     0
100
AcDbPoint
 10
9.309777983656749
 20
11.94486545154077
 30
0.0
  0
ENDBLK
  5
27C
330
270
100
AcDbEntity
  8
0
100
AcDbBlockEnd
  0
ENDSEC
  0
SECTION
  2
ENTITIES
  0
TEXT
  5
BE
330
1F
100
AcDbEntity
  8
tx
  6
Continuous
 48
0.233332
100
AcDbText
 10
1.674558203210658
 20
0.9441446796929948
 30
0.0
 40
0.09375
  1
SCALE : 1" = 1"
  7
REG
 11
1.674558203210658
 21
1.037894679692994
 31
0.0
100
AcDbText
 73
     3
  0
TEXT
  5
BF
330
1F
100
AcDbEntity
  8
L
  6
Continuous
 62
     3
 48
0.233332
100
AcDbText
 10
1.674558203210658
 20
1.225366365055078
 30
0.0
 40
0.140625
  1
1 PIECE TRANSFORMER RACEWAY #1980
  7
REG
100
AcDbText
  0
LWPOLYLINE
  5
C0
330
1F
100
AcDbEntity
  8
L
  6
Continuous
 62
     5
 48
0.233332
100
AcDbPolyline
 90
        2
 70
     0
 43
0.028125
 10
1.580822360529673
 20
1.131630522374036
 10
6.436435507081391
 20
1.131630522374036
  0
LWPOLYLINE
  5
260
330
1F
100
AcDbEntity
  8
0
 62
     3
100
AcDbPolyline
 90
      159
 70
     1
 43
0.0
 10
8.973257078052862
 20
10.46308540866686
 42
-1.00000000001101
 10
8.896077522448116
 20
10.44203033333871
 42
-0.066679944231853
 10
8.890277990503207
 20
10.48532480550505
 10
8.890277990503207
 20
10.58732483198109
 42
0.4142135623730966
 10
8.880277990503207
 20
10.59732483198109
 10
8.557729461889351
 20
10.59732483198109
 42
-0.4142135623730038
 10
8.51772946188935
 20
10.63732483198108
 10
8.517729461889231
 20
11.07387995433157
 42
0.1316524975885602
 10
8.504332002267432
 20
11.12387995433196
 10
8.487187656662786
 20
11.1535748319814
 42
-0.9999999999999998
 10
8.595440832135537
 20
11.21607483198192
 10
8.629332002267144
 20
11.15737360338668
 42
-0.131652497588559
 10
8.642729461889222
 20
11.10737360338523
 10
8.642729461889311
 20
10.78732483198243
 42
0.4142135623723145
 10
8.682729461890088
 20
10.74732483198157
 10
9.031777983656203
 20
10.74732483198076
 42
-0.4142135623753183
 10
9.309777983656749
 20
10.46932483198241
 10
9.309777983660552
 20
3.025324831981992
 42
-0.4142135623734965
 10
9.031777983664019
 20
2.74732483198167
 10
2.213729461904098
 20
2.747324831979851
 42
-0.414213562373095
 10
2.13372946190417
 20
2.827324831979777
 10
2.133729461905991
 20
3.029824831979196
 42
-0.4142135623554098
 10
2.163729461904826
 20
3.059824831979851
 10
2.193729461905481
 20
3.05982483197985
 42
-0.4142135623553968
 10
2.223729461904316
 20
3.029824831979204
 10
2.223729461904317
 20
2.979824831979014
 42
-0.4142135623731211
 10
2.213729461904098
 20
2.969824831977886
 42
0.414213562426372
 10
2.20372946190388
 20
2.959824831979488
 10
2.203729461903881
 20
2.917324831979923
 42
0.414213562373069
 10
2.213729461904098
 20
2.907324831979705
 42
-0.4142135623729455
 10
2.223729461904316
 20
2.897324831979485
 10
2.223729461904317
 20
2.847324831980214
 42
0.4142135624130007
 10
2.233729461904535
 20
2.837324831979996
 10
2.303729461906063
 20
2.837324831979996
 42
0.4142135623331633
 10
2.313729461906282
 20
2.847324831981579
 10
2.313729461904463
 20
2.897324831979485
 42
-0.4142135624262745
 10
2.32372946190468
 20
2.907324831979705
 42
0.414213562373069
 10
2.333729461904899
 20
2.917324831979922
 10
2.333729461906719
 20
2.959824831979486
 42
0.414213562426372
 10
2.32372946190468
 20
2.969824831979705
 42
-0.4142135623730432
 10
2.313729461906282
 20
2.979824831978104
 10
2.313729461904463
 20
3.269824831978978
 42
0.4142135623730886
 10
2.273729461905409
 20
3.30982483197985
 10
2.208729461904899
 20
3.309824831979849
 42
-0.4142135623730863
 10
2.178729461906062
 20
3.33982483197869
 10
2.178729461906064
 20
3.389824831979778
 42
-0.4142135624130007
 10
2.188729461906281
 20
3.399824831978177
 42
0.4142135623198441
 10
2.19872946190468
 20
3.409824831978394
 10
2.198729461904681
 20
3.452324831979777
 42
0.4142135622399027
 10
2.188729461904463
 20
3.462324831979996
 42
-0.4142135623331113
 10
2.178729461906064
 20
3.47232483197976
 10
2.178729461904245
 20
3.522324831979486
 42
0.4142135623199222
 10
2.168729461905845
 20
3.532324831979704
 10
2.098729461904317
 20
3.532324831979706
 42
0.414213562319714
 10
2.088729461905918
 20
3.522324831979486
 10
2.088729461904099
 20
3.472324831979305
 42
-0.4142135623199482
 10
2.078729461905699
 20
3.462324831978178
 42
0.4142135623996295
 10
2.068729461905482
 20
3.452324831978868
 10
2.068729461905482
 20
3.409824831979304
 42
0.4142135623731211
 10
2.078729461905698
 20
3.399824831978178
 42
-0.4142135623730951
 10
2.088729461904097
 20
3.389824831979778
 10
2.088729461905918
 20
3.339824831979596
 42
-0.4142135623731297
 10
2.058729461905262
 20
3.30982483197985
 10
2.028729461904608
 20
3.309824831979849
 42
-0.41421356236869
 10
1.998729461905771
 20
3.339824831979141
 10
1.998729461903955
 20
10.15482483197919
 42
-0.4142135623907543
 10
2.028729461904609
 20
10.18482483197803
 10
2.058729461905264
 20
10.18482483197985
 42
-0.4142135623730864
 10
2.088729461905918
 20
10.1548248319792
 10
2.088729461904101
 20
10.10482483197992
 42
-0.4142135623197401
 10
2.078729461905701
 20
10.0948248319797
 42
0.414213562372965
 10
2.068729461905483
 20
10.08482483197949
 10
2.068729461905483
 20
10.04232483197992
 42
0.414213562373069
 10
2.078729461905701
 20
10.0323248319797
 42
-0.4142135623198441
 10
2.088729461904099
 20
10.02232483197948
 10
2.088729461907739
 20
9.972324831979305
 42
0.4142135623198181
 10
2.098729461904319
 20
9.962324831979996
 10
2.168729461905846
 20
9.962324831979996
 42
0.414213562479675
 10
2.178729461906065
 20
9.972324831976576
 10
2.178729461906065
 20
10.02232483197948
 42
-0.4142135623064729
 10
2.188729461904464
 20
10.0323248319797
 42
0.414213562299397
 10
2.198729461903985
 20
10.04232483198174
 10
2.198729461903985
 20
10.08482483197949
 42
0.414213562319714
 10
2.188729461905586
 20
10.0948248319797
 42
-0.4142135623730951
 10
2.178729461903548
 20
10.10482483198174
 10
2.178729461903548
 20
10.15482483197919
 42
-0.414213562390802
 10
2.208729461904203
 20
10.18482483197803
 10
2.273729461904713
 20
10.18482483197985
 42
0.4142135623731081
 10
2.313729461903767
 20
10.2248248319789
 10
2.313729461905586
 20
10.51482483197977
 42
-0.4142135623197661
 10
2.323729461903985
 20
10.52482483197999
 42
0.414213562426424
 10
2.333729461904203
 20
10.53482483197839
 10
2.333729461904203
 20
10.57732483197977
 42
0.4142135623730951
 10
2.323729461903985
 20
10.58732483197999
 42
-0.4142135623731471
 10
2.313729461905586
 20
10.59732483197839
 10
2.313729461905586
 20
10.64732483197948
 42
0.4142135623198702
 10
2.303729461905367
 20
10.6573248319797
 10
2.233729461903839
 20
10.6573248319797
 42
0.4142135623197661
 10
2.22372946190544
 20
10.64732483197948
 10
2.223729461903621
 20
10.5973248319793
 42
-0.414213562479649
 10
2.213729461903403
 20
10.58732483197999
 42
0.4142135623730951
 10
2.203729461903185
 20
10.57732483197977
 10
2.203729461903185
 20
10.53482483198021
 42
0.4142135623731471
 10
2.213729461903403
 20
10.52482483197999
 42
-0.4142135623730951
 10
2.223729461903621
 20
10.51482483197977
 10
2.223729461903623
 20
10.46482483197914
 42
-0.414213562355336
 10
2.193729461906144
 20
10.43482483197984
 10
2.16372946190413
 20
10.43482483197803
 42
-0.4142135623580198
 10
2.133729461903476
 20
10.46482483198077
 10
2.133729461905295
 20
10.6673248319802
 42
-0.4142135623715862
 10
2.213729461905964
 20
10.74732483197984
 10
2.921729461901966
 20
10.74732483197712
 42
0.4142135623742137
 10
2.961729461904814
 20
10.78732483197981
 10
2.961729461904813
 20
11.1173248381099
 42
0.4142135623731406
 10
2.921729461904806
 20
11.1573248381099
 10
2.860504703960135
 20
11.15732483810989
 42
0.3755943378579025
 10
2.820861311294572
 20
11.12265413618426
 42
-2.271224778276831
 10
2.716729416305059
 20
11.24732483810987
 10
3.046729461904806
 20
11.24732483810992
 42
-0.4142135623731471
 10
3.086729461904813
 20
11.20732483810992
 10
3.086729461904814
 20
10.63132483811044
 42
-0.4142135623744153
 10
3.046729461904632
 20
10.59132483811044
 10
2.696229409453557
 20
10.59132483811204
 42
0.4142135623744344
 10
2.686229409453511
 20
10.58132483811204
 10
2.686229409453511
 20
10.48532481163275
 42
-0.0666799442303997
 10
2.6804298775088
 20
10.44203033946692
 42
-1.000000000027934
 10
2.603250321903968
 20
10.46308541479392
 42
1.932784366076362
 10
2.473642998201656
 20
10.41584141278855
 42
-0.4908772878976065
 10
2.480153371192503
 20
10.29259778782847
 42
0.2183410339323106
 10
2.469729461904658
 20
10.2698650653249
 10
2.469729461904341
 20
10.15882483198132
 42
-0.2943341868933359
 10
2.393425114079226
 20
10.04043236204585
 42
0.2943341868941187
 10
2.334729461906064
 20
9.949361231325958
 10
2.334729461906066
 20
9.906324831979995
 42
-0.4103135742135972
 10
2.236062795238063
 20
9.806333721263937
 42
0.4103135742136578
 10
2.186729461904062
 20
9.756338165905908
 10
2.186729461905665
 20
3.738311498053702
 42
0.4103135742082298
 10
2.236062795238762
 20
3.688315942695711
 42
-0.4103135742055203
 10
2.334729461904958
 20
3.588324831980653
 10
2.334729461905368
 20
3.545288432634837
 42
0.2943341868920576
 10
2.393425114078707
 20
3.454217301915817
 42
-0.2943341868929426
 10
2.469729461904048
 20
3.335824831980667
 10
2.46972946190432
 20
3.292487739959812
 42
0.4162314498755805
 10
2.520073688205499
 20
3.242488924891631
 42
-0.0249156072694188
 10
2.544005555597074
 20
3.241460746518122
 42
-0.9999999999999998
 10
2.529556168213428
 20
3.086131370016969
 42
1.74175606515846
 10
2.5911494559185
 20
2.953816744048894
 42
-0.514077516534746
 10
2.718001160335966
 20
2.95564515326894
 42
0.2381762629051491
 10
2.758239409199574
 20
2.935324831979997
 10
8.858974933388379
 20
2.935324831981623
 42
0.3000797770163
 10
8.904936426150198
 20
2.965638766272488
 42
-0.6498610856753063
 10
8.978034075977014
 20
2.966630383008872
 42
2.157239891224258
 10
9.032538515151721
 20
3.083515530018145
 42
-1.000000000000021
 10
9.011483439822663
 20
3.16069508561925
 42
-0.0866315443845576
 10
9.06781526452929
 20
3.165977172381583
 42
0.4376465949291451
 10
9.121777983660457
 20
3.21581989358629
 10
9.121777983656862
 20
10.24832155971646
 42
0.2394722525492693
 10
9.101259968408287
 20
10.28870488022277
 42
-0.5160454047439505
 10
9.102864401757758
 20
10.41584140666178
 42
1.932784366035045
  0
DIMENSION
  5
261
330
1F
100
AcDbEntity
  8
0
100
AcDbDimension
  2
*D6
 10
0.9028922259639667
 20
2.747324831979852
 30
0.0
 11
0.9028922259639665
 21
6.997324835044862
 31
0.0
 70
    32
 71
     5
 42
8.500000006130019
  3
Standard
100
AcDbAlignedDimension
 13
2.716729416305059
 23
11.24732483810987
 33
0.0
 14
2.213729461904098
 24
2.747324831979851
 34
0.0
 50
90.0
100
AcDbRotatedDimension
  0
DIMENSION
  5
26F
330
1F
100
AcDbEntity
  8
0
100
AcDbDimension
  2
*D7
 10
9.309777983656749
 20
11.94486545154077
 30
0.0
 11
5.654253722780352
 21
11.94486545154077
 31
0.0
 70
    32
 71
     5
 42
7.311048521752793
  3
Standard
100
AcDbAlignedDimension
 13
1.998729461903955
 23
10.15482483197919
 33
0.0
 14
9.309777983656749
 24
10.46932483198241
 34
0.0
100
AcDbRotatedDimension
  0
ENDSEC
  0
SECTION
  2
OBJECTS
  0
DICTIONARY
  5
C
330
0
100
AcDbDictionary
281
     1
  3
ACAD_COLOR
350
22B
  3
ACAD_GROUP
350
D
  3
ACAD_LAYOUT
350
1A
  3
ACAD_MATERIAL
350
22A
  3
ACAD_MLINESTYLE
350
17
  3
ACAD_PLOTSETTINGS
350
19
  3
ACAD_PLOTSTYLENAME
350
E
  3
ACAD_TABLESTYLE
350
22C
  3
ACDBHEADERROUNDTRIPXREC
350
283
  3
AcDbVariableDictionary
350
27E
  0
DICTIONARY
  5
257
330
2
100
AcDbDictionary
280
     1
281
     1
  3
ACAD_LAYERSTATES
360
258
  0
DICTIONARY
  5
22B
102
{ACAD_REACTORS
330
C
102
}
330
C
100
AcDbDictionary
281
     1
  0
DICTIONARY
  5
D
102
{ACAD_REACTORS
330
C
102
}
330
C
100
AcDbDictionary
281
     1
  0
DICTIONARY
  5
1A
102
{ACAD_REACTORS
330
C
102
}
330
C
100
AcDbDictionary
281
     1
  3
Layout1
350
1E
  3
Layout2
350
26
  3
Model
350
22
  0
DICTIONARY
  5
22A
102
{ACAD_REACTORS
330
C
102
}
330
C
100
AcDbDictionary
281
     1
  0
DICTIONARY
  5
17
102
{ACAD_REACTORS
330
C
102
}
330
C
100
AcDbDictionary
281
     1
  3
Standard
350
18
  0
DICTIONARY
  5
19
102
{ACAD_REACTORS
330
C
102
}
330
C
100
AcDbDictionary
281
     1
  0
ACDBDICTIONARYWDFLT
  5
E
102
{ACAD_REACTORS
330
C
102
}
330
C
100
AcDbDictionary
281
     1
  3
Normal
350
F
100
AcDbDictionaryWithDefault
340
F
  0
DICTIONARY
  5
22C
102
{ACAD_REACTORS
330
C
102
}
330
C
100
AcDbDictionary
281
     1
  3
Standard
350
22D
  0
DICTIONARY
  5
283
102
{ACAD_REACTORS
330
C
102
}
330
C
100
AcDbDictionary
281
     1
  0
DICTIONARY
  5
27E
102
{ACAD_REACTORS
330
C
102
}
330
C
100
AcDbDictionary
281
     1
  3
CTABLESTYLE
350
27F
  3
DIMASSOC
350
280
  3
PROJECTNAME
350
281
  0
DICTIONARY
  5
258
102
{ACAD_REACTORS
330
257
102
}
330
257
100
AcDbDictionary
281
     1
  0
LAYOUT
  5
1E
102
{ACAD_XDICTIONARY
360
284
102
}
102
{ACAD_REACTORS
330
1A
102
}
330
1A
100
AcDbPlotSettings
  1

  2
EPSON Stylus COLOR 3000
  4

  6

 40
0.0
 41
0.0
 42
0.0
 43
0.0
 44
0.0
 45
0.0
 46
0.0
 47
0.0
 48
0.0
 49
0.0
140
0.0
141
0.0
142
1.0
143
1.0
 70
   688
 72
     0
 73
     0
 74
     5
  7

 75
    16
147
1.0
148
0.0
149
0.0
100
AcDbLayout
  1
Layout1
 70
     1
 71
     1
 10
0.0
 20
0.0
 11
12.0
 21
9.0
 12
0.0
 22
0.0
 32
0.0
 14
1.000000000000000E+20
 24
1.000000000000000E+20
 34
1.000000000000000E+20
 15
-1.000000000000000E+20
 25
-1.000000000000000E+20
 35
-1.000000000000000E+20
146
0.0
 13
0.0
 23
0.0
 33
0.0
 16
1.0
 26
0.0
 36
0.0
 17
0.0
 27
1.0
 37
0.0
 76
     0
330
1B
  0
LAYOUT
  5
26
102
{ACAD_XDICTIONARY
360
288
102
}
102
{ACAD_REACTORS
330
1A
102
}
330
1A
100
AcDbPlotSettings
  1

  2
EPSON Stylus COLOR 3000
  4

  6

 40
0.0
 41
0.0
 42
0.0
 43
0.0
 44
0.0
 45
0.0
 46
0.0
 47
0.0
 48
0.0
 49
0.0
140
0.0
141
0.0
142
1.0
143
1.0
 70
   688
 72
     0
 73
     0
 74
     5
  7

 75
    16
147
1.0
148
0.0
149
0.0
100
AcDbLayout
  1
Layout2
 70
     1
 71
     2
 10
0.0
 20
0.0
 11
12.0
 21
9.0
 12
0.0
 22
0.0
 32
0.0
 14
0.0
 24
0.0
 34
0.0
 15
0.0
 25
0.0
 35
0.0
146
0.0
 13
0.0
 23
0.0
 33
0.0
 16
1.0
 26
0.0
 36
0.0
 17
0.0
 27
1.0
 37
0.0
 76
     0
330
23
  0
LAYOUT
  5
22
102
{ACAD_XDICTIONARY
360
286
102
}
102
{ACAD_REACTORS
330
1A
102
}
330
1A
100
AcDbPlotSettings
  1

  2
EPSON Stylus COLOR 3000
  4

  6

 40
0.0
 41
0.0
 42
0.0
 43
0.0
 44
0.0
 45
0.0
 46
0.0
 47
0.0
 48
0.0
 49
0.0
140
0.0
141
0.0
142
1.0
143
1.0
 70
  1712
 72
     0
 73
     0
 74
     0
  7

 75
     0
147
1.0
148
0.0
149
0.0
100
AcDbLayout
  1
Model
 70
     1
 71
     0
 10
0.0
 20
0.0
 11
12.0
 21
9.0
 12
0.0
 22
0.0
 32
0.0
 14
0.0
 24
0.0
 34
0.0
 15
0.0
 25
0.0
 35
0.0
146
0.0
 13
0.0
 23
0.0
 33
0.0
 16
1.0
 26
0.0
 36
0.0
 17
0.0
 27
1.0
 37
0.0
 76
     0
330
1F
  0
MLINESTYLE
  5
18
102
{ACAD_REACTORS
330
17
102
}
330
17
100
AcDbMlineStyle
  2
STANDARD
 70
     0
  3

 62
   256
 51
90.0
 52
90.0
 71
     2
 49
0.5
 62
   256
  6
BYLAYER
 49
-0.5
 62
   256
  6
BYLAYER
  0
ACDBPLACEHOLDER
  5
F
102
{ACAD_REACTORS
330
E
102
}
330
E
  0
TABLESTYLE
  5
22D
102
{ACAD_REACTORS
330
22C
102
}
330
22C
100
AcDbTableStyle
  3
Standard
 70
     0
 71
     0
 40
0.06
 41
0.06
280
     0
281
     0
  7
Standard
140
0.18
170
     2
 62
     0
 63
     7
283
     0
274
    -2
284
     1
 64
     0
275
    -2
285
     1
 65
     0
276
    -2
286
     1
 66
     0
277
    -2
287
     1
 67
     0
278
    -2
288
     1
 68
     0
279
    -2
289
     1
 69
     0
  7
Standard
140
0.25
170
     5
 62
     0
 63
     7
283
     0
274
    -2
284
     1
 64
     0
275
    -2
285
     1
 65
     0
276
    -2
286
     1
 66
     0
277
    -2
287
     1
 67
     0
278
    -2
288
     1
 68
     0
279
    -2
289
     1
 69
     0
  7
Standard
140
0.18
170
     5
 62
     0
 63
     7
283
     0
274
    -2
284
     1
 64
     0
275
    -2
285
     1
 65
     0
276
    -2
286
     1
 66
     0
277
    -2
287
     1
 67
     0
278
    -2
288
     1
 68
     0
279
    -2
289
     1
 69
     0
  0
DICTIONARYVAR
  5
27F
102
{ACAD_REACTORS
330
27E
102
}
330
27E
100
DictionaryVariables
280
     0
  1
STANDARD
  0
DICTIONARYVAR
  5
280
102
{ACAD_REACTORS
330
27E
102
}
330
27E
100
DictionaryVariables
280
     0
  1
1
  0
DICTIONARYVAR
  5
281
102
{ACAD_REACTORS
330
27E
102
}
330
27E
100
DictionaryVariables
280
     0
  1

  0
DICTIONARY
  5
284
330
1E
100
AcDbDictionary
280
     1
281
     1
  3
ACAD_XREC_ROUNDTRIP
360
285
  0
DICTIONARY
  5
288
330
26
100
AcDbDictionary
280
     1
281
     1
  3
ACAD_XREC_ROUNDTRIP
360
289
  0
DICTIONARY
  5
286
330
22
100
AcDbDictionary
280
     1
281
     1
  3
ACAD_XREC_ROUNDTRIP
360
287
  0
XRECORD
  5
285
102
{ACAD_REACTORS
330
284
102
}
330
284
100
AcDbXrecord
280
     1
102
SHADEPLOT
 70
     0
102
SHADEPLOTRESLEVEL
 70
     2
102
SHADEPLOTCUSTOMDPI
 70
   300
  0
XRECORD
  5
289
102
{ACAD_REACTORS
330
288
102
}
330
288
100
AcDbXrecord
280
     1
102
SHADEPLOT
 70
     0
102
SHADEPLOTRESLEVEL
 70
     2
102
SHADEPLOTCUSTOMDPI
 70
   300
  0
XRECORD
  5
287
102
{ACAD_REACTORS
330
286
102
}
330
286
100
AcDbXrecord
280
     1
102
SHADEPLOT
 70
     0
102
SHADEPLOTRESLEVEL
 70
     2
102
SHADEPLOTCUSTOMDPI
 70
   300
  0
ENDSEC
  0
EOF
